<?xml version="1.0" standalone="no"?>
<!DOCTYPE svg PUBLIC "-//W3C//DTD SVG 1.1//EN" "http://www.w3.org/Graphics/SVG/1.1/DTD/svg11.dtd" >
<svg xmlns="http://www.w3.org/2000/svg">
<metadata></metadata>
<defs>
<font id="verbsemibold" horiz-adv-x="1290" >
<font-face units-per-em="2048" ascent="1638" descent="-410" />
<missing-glyph horiz-adv-x="561" />
<glyph horiz-adv-x="2048" />
<glyph horiz-adv-x="2048" />
<glyph unicode="&#xd;" horiz-adv-x="2048" />
<glyph unicode=" "  horiz-adv-x="561" />
<glyph unicode="&#x09;" horiz-adv-x="561" />
<glyph unicode="&#xa0;" horiz-adv-x="561" />
<glyph unicode="!" horiz-adv-x="567" d="M129 1434h307l-76 -983h-153zM150 0v287h268v-287h-268z" />
<glyph unicode="&#x22;" horiz-adv-x="874" d="M104 1434h248l-43 -551h-162zM520 1434h248l-45 -551h-160z" />
<glyph unicode="#" horiz-adv-x="1521" d="M86 338v192h281l57 371h-252v195h283l53 338h197l-54 -338h336l53 338h199l-53 -338h252v-195h-281l-57 -371h252v-192h-283l-51 -338h-199l51 338h-335l-52 -338h-198l51 338h-250zM565 530h336l57 371h-335z" />
<glyph unicode="$" horiz-adv-x="1304" d="M82 164l119 190q71 -42 170 -81t194 -60v410q-7 2 -65 22q-62 22 -109 42t-102.5 55.5t-91 76.5t-60 101.5t-24.5 132.5q0 172 122.5 281.5t329.5 119.5v186h189v-196q224 -33 417 -131l-118 -193q-144 69 -299 99v-381l55 -19q53 -18 93 -34.5t92.5 -43.5t89.5 -59 t70.5 -74t51 -97t17.5 -120q0 -180 -130 -290t-339 -121v-185h-189v195q-134 19 -263 67.5t-220 106.5zM389 1069q0 -63 43.5 -100t132.5 -70v332q-79 -11 -127.5 -51.5t-48.5 -110.5zM754 201q84 10 138 54.5t54 117.5q0 63 -48 105t-144 79v-356z" />
<glyph unicode="%" horiz-adv-x="2056" d="M76 1071q0 182 103.5 283.5t283.5 101.5q182 0 285.5 -101.5t103.5 -283.5t-103 -282.5t-286 -100.5q-180 0 -283.5 101t-103.5 282zM270 1071q0 -108 50.5 -165.5t142.5 -57.5q93 0 143.5 57.5t50.5 165.5t-50.5 166.5t-143.5 58.5q-91 0 -142 -58.5t-51 -166.5zM553 0 l745 1434h203l-745 -1434h-203zM1204 360q0 182 102.5 283.5t284.5 101.5q181 0 285 -101.5t104 -283.5t-104 -282.5t-285 -100.5q-182 0 -284.5 100.5t-102.5 282.5zM1399 360q0 -108 49.5 -165.5t142.5 -57.5t144 57.5t51 165.5t-51 167t-144 59q-92 0 -142 -58.5 t-50 -167.5z" />
<glyph unicode="&#x26;" horiz-adv-x="1464" d="M123 358q0 69 23.5 130t68.5 111t92 87.5t113 79.5q-91 91 -142 174.5t-51 183.5q0 154 117.5 243t284.5 89t274 -89.5t107 -227.5q0 -61 -22 -117.5t-64.5 -106t-86 -87.5t-104.5 -83l291 -290q86 146 98 301h254q-15 -108 -62 -232.5t-126 -232.5l291 -291h-297 l-138 137q-192 -160 -450 -160q-203 0 -337 105.5t-134 275.5zM375 369q0 -34 13.5 -67.5t40 -64t73.5 -49t108 -18.5q153 0 285 119l-332 336q-92 -69 -140 -128.5t-48 -127.5zM459 1116q0 -61 36.5 -116t102.5 -121q88 60 135 116.5t47 124.5q0 62 -38.5 106t-116.5 44 t-122 -45t-44 -109z" />
<glyph unicode="'" horiz-adv-x="458" d="M104 1434h248l-43 -551h-162z" />
<glyph unicode="(" horiz-adv-x="665" d="M137 156v1114q0 76 2.5 114.5t14.5 89.5t38 78.5t72 60t116.5 56.5t172.5 49l68 -149q-55 -19 -91 -33.5t-61.5 -33t-38.5 -32t-20 -40t-8 -47.5t-1 -64v-1215q0 -43 1 -64t8.5 -47t20 -39.5t38 -31.5t61 -32t91.5 -33l-68 -150q-88 21 -152 43t-109 43t-74 53 t-45.5 57.5t-24.5 72t-9.5 81t-1.5 99.5z" />
<glyph unicode=")" horiz-adv-x="665" d="M45 -143q56 19 91.5 33t61 32t38 31t19.5 40t8 47.5t1 63.5v1215q0 43 -1 63.5t-8 47.5t-19.5 40.5t-38 32t-61.5 33t-91 33.5l70 149q88 -21 151.5 -43.5t108.5 -43.5t74 -53t45 -56.5t23.5 -71.5t9 -80.5t1.5 -99.5v-1114q0 -77 -2.5 -115t-14 -90t-37 -79t-71 -60 t-116 -57t-172.5 -48z" />
<glyph unicode="*" horiz-adv-x="980" d="M96 932l316 98l-314 105l109 186l246 -223l-70 319h215l-68 -319l244 221l107 -186l-306 -101l306 -102l-109 -187l-240 213l66 -311h-215l70 320l-248 -220z" />
<glyph unicode="+" d="M121 586v192h426v381h194v-381h426v-192h-426v-381h-194v381h-426z" />
<glyph unicode="," horiz-adv-x="530" d="M119 -223l129 223h-121v307h266l23 -338l-223 -280z" />
<glyph unicode="-" horiz-adv-x="890" d="M131 479v207h627v-207h-627z" />
<glyph unicode="." horiz-adv-x="526" d="M129 0v307h268v-307h-268z" />
<glyph unicode="/" horiz-adv-x="958" d="M43 -184l676 1802h196l-675 -1802h-197z" />
<glyph unicode="0" horiz-adv-x="1376" d="M109 717q0 355 148 547t431 192t430.5 -192t147.5 -547t-148.5 -547.5t-431.5 -192.5t-430 192.5t-147 547.5zM375 717q0 -533 311 -533q313 0 313 533q0 532 -311 532q-313 0 -313 -532z" />
<glyph unicode="1" horiz-adv-x="817" d="M25 1225l372 209h248v-1434h-264v1184l-252 -133z" />
<glyph unicode="2" horiz-adv-x="1234" d="M82 0v131q0 62 14 119t35 102.5t58.5 92t70.5 79.5t86 73.5t90 66t96 63.5q159 105 194 132q115 88 130 172q2 14 2 28q0 78 -61.5 127t-173.5 49q-178 0 -381 -131l-121 172q254 180 534 180q219 0 343 -107.5t124 -279.5q0 -54 -14 -105t-35 -91t-58 -81.5t-69 -70.5 t-83.5 -65t-86.5 -58t-91 -57q-26 -15 -38 -23q-65 -41 -103.5 -68.5t-77 -65t-56 -78t-17.5 -87.5h731v-219h-1042z" />
<glyph unicode="3" horiz-adv-x="1243" d="M55 145l119 183q228 -129 418 -129q127 0 207 58.5t80 158.5q0 69 -41 119t-108.5 75t-135 36t-139.5 11h-62v224h72q63 0 122 10.5t111.5 32t84.5 61.5t32 94q0 72 -57.5 114t-159.5 42q-173 0 -367 -119l-110 166q29 22 68 45.5t106.5 55.5t158 52.5t185.5 20.5 q109 0 194.5 -28t138 -76t80 -108.5t27.5 -129.5q0 -107 -64.5 -191.5t-187.5 -131.5q139 -38 228.5 -141t89.5 -238q0 -66 -18 -127.5t-58 -118t-99.5 -98.5t-148 -66.5t-196.5 -24.5q-95 0 -189 18t-169 47.5t-123.5 53.5t-88.5 49z" />
<glyph unicode="4" horiz-adv-x="1351" d="M55 289v188l666 957h346v-924h219v-221h-219v-289h-262v289h-750zM328 510h477v702z" />
<glyph unicode="5" horiz-adv-x="1222" d="M74 143l116 193q198 -133 373 -133q126 0 212.5 70.5t86.5 185.5q0 108 -76.5 181t-214.5 73q-133 0 -288 -82l-146 86l78 717h858v-222h-643l-22 -323q103 39 223 39q119 0 215 -38t157.5 -103t94 -148.5t32.5 -177.5q0 -76 -20.5 -146.5t-64 -132t-105.5 -107 t-150.5 -72t-193.5 -26.5q-263 0 -522 166z" />
<glyph unicode="6" horiz-adv-x="1288" d="M102 584q-1 202 63 368.5t174.5 275.5t257.5 168.5t314 59.5q54 0 105.5 -5.5t76.5 -10.5l25 -6l-61 -209q-64 14 -142 14q-84 0 -162.5 -24.5t-151.5 -76t-128 -142t-82 -210.5q56 54 146.5 95t212.5 41q208 0 334 -127.5t126 -323.5q0 -100 -37 -189.5t-104 -157.5 t-169 -107.5t-224 -39.5q-115 0 -211.5 34t-162 92t-111.5 136t-67 164.5t-22 180.5zM369 557q0 -164 83 -264t218 -100q133 0 204.5 80.5t71.5 189.5q0 107 -70 182.5t-200 75.5q-108 0 -190 -50t-117 -112v-2z" />
<glyph unicode="7" horiz-adv-x="1075" d="M55 1212v222h983v-203q-11 -13 -30 -37t-73.5 -101.5t-104 -158t-109.5 -198.5t-103.5 -231t-73.5 -248t-30 -257h-272q0 112 26 237t65 232t93.5 219.5t101 192.5t99 159.5t77 113t44.5 58.5h-693z" />
<glyph unicode="8" horiz-adv-x="1316" d="M88 379q0 76 27 140.5t77 112.5t103.5 81.5t122.5 64.5q-113 59 -177.5 137t-64.5 191q0 158 130 254t351 96q222 0 353 -96t131 -254q0 -201 -242 -328q69 -31 122.5 -64.5t103.5 -81.5t77 -112.5t27 -140.5q0 -186 -156 -294t-416 -108t-414.5 108t-154.5 294zM356 397 q0 -98 85.5 -157.5t215.5 -59.5q133 0 219.5 59.5t86.5 157.5q0 51 -24.5 94t-71.5 77.5t-95.5 59t-114.5 50.5q-65 -26 -113.5 -51t-94 -59.5t-69.5 -77.5t-24 -93zM434 1081q0 -42 19.5 -77t55.5 -60.5t70 -43t80 -34.5q36 14 63.5 26.5t59.5 32.5t53 41t35.5 51t14.5 64 q0 71 -64 125t-164 54q-99 0 -161 -54t-62 -125z" />
<glyph unicode="9" horiz-adv-x="1288" d="M78 963q0 99 37 188.5t103.5 157t168.5 107.5t225 40q115 0 211.5 -34t162 -92t111 -136t66.5 -164.5t21 -179.5q1 -202 -63 -369t-174.5 -276t-257.5 -168.5t-314 -59.5q-53 0 -104 5.5t-76 11.5l-25 6l61 207q64 -14 142 -14q84 0 161.5 24.5t149.5 75.5t127 140.5 t82 209.5q-141 -131 -354 -131q-209 0 -335 127t-126 324zM340 971q0 -108 70.5 -184t199.5 -76q107 0 189.5 49t118.5 110v7q0 162 -83 262t-217 100q-92 0 -157 -41t-93 -100t-28 -127z" />
<glyph unicode=":" horiz-adv-x="544" d="M137 0v307h269v-307h-269zM137 662v307h269v-307h-269z" />
<glyph unicode=";" horiz-adv-x="565" d="M137 -223l129 223h-121v307h267l22 -336l-223 -282zM145 662v307h269v-307h-269z" />
<glyph unicode="&#x3c;" d="M92 594v178l1045 422v-221l-777 -291l777 -293v-217z" />
<glyph unicode="=" d="M121 397v193h1046v-193h-1046zM121 778v195h1046v-195h-1046z" />
<glyph unicode="&#x3e;" d="M152 172v217l774 293l-774 291v221l1042 -422v-178z" />
<glyph unicode="?" horiz-adv-x="1087" d="M63 1298q249 158 490 158q194 0 323.5 -98t129.5 -266q0 -92 -37.5 -165t-105.5 -123.5t-145.5 -83.5t-176.5 -58l-15 -211h-164l-16 348q208 44 301.5 99t93.5 155q0 82 -61.5 132t-165.5 50q-157 0 -336 -115zM311 0v287h267v-287h-267z" />
<glyph unicode="@" horiz-adv-x="1968" d="M98 518q0 189 63.5 352t179.5 281.5t289.5 186t383.5 67.5q208 0 374 -66t273.5 -184t164.5 -279.5t58 -355.5q-1 -120 -24.5 -221t-70.5 -181.5t-126.5 -126.5t-183.5 -46q-73 0 -128 23.5t-85 62.5t-45 77.5t-19 79.5q-154 -141 -340 -141q-62 0 -116.5 18.5 t-98.5 54.5t-70 95t-26 135q0 77 26.5 137t72 97t104 56t125.5 19q46 0 105.5 -8.5t130 -22.5t85.5 -16v95q0 98 -39 139t-141 41q-142 0 -336 -82l-70 137q236 94 437 94q170 0 254 -78.5t84 -248.5v-371q0 -43 1 -69t4.5 -61.5t12.5 -56.5t22.5 -41.5t36.5 -30t54 -9.5 q45 0 88 24.5t83 75t64.5 142.5t24.5 212q0 132 -29.5 248t-91 214.5t-151 169t-216.5 110t-280 39.5q-192 0 -347 -62t-254.5 -170t-152.5 -250t-53 -305q0 -223 91.5 -400.5t264 -280.5t397.5 -103q110 0 208 22t141 44l43 22l63 -82q-6 -4 -18.5 -11.5t-56 -26t-93 -32.5 t-128.5 -25.5t-163 -11.5q-189 0 -350 67.5t-271.5 185.5t-172.5 281.5t-62 350.5zM745 362q0 -84 47.5 -124.5t125.5 -40.5q140 0 282 129v182q-3 0 -66.5 12t-107.5 17.5t-82 5.5q-102 0 -150.5 -50.5t-48.5 -130.5z" />
<glyph unicode="A" horiz-adv-x="1435" d="M29 0l544 1434h289l543 -1434h-285l-104 305h-598l-103 -305h-286zM487 516h459l-229 680z" />
<glyph unicode="B" horiz-adv-x="1404" d="M168 0v1434h551q256 0 389 -90t133 -261q0 -71 -24 -131.5t-62 -98t-77.5 -60.5t-76.5 -29q37 -6 76 -20.5t83.5 -45t79 -71t57 -104t22.5 -138.5q0 -183 -127 -284t-379 -101h-645zM430 205h338q145 0 218 59t73 162q0 229 -344 229h-285v-450zM430 848h268 q130 0 206.5 48.5t76.5 145.5q0 88 -68 136.5t-206 48.5h-277v-379z" />
<glyph unicode="C" horiz-adv-x="1335" d="M102 717q0 186 45.5 330t125.5 232t184.5 132.5t228.5 44.5q150 0 287 -55t303 -154l-127 -192q-85 50 -143 80t-140.5 57t-152.5 27q-156 0 -247 -134t-91 -368t91 -369t247 -135q101 0 203 43t233 121l127 -193q-163 -98 -301.5 -152.5t-288.5 -54.5q-124 0 -228.5 45 t-184.5 133t-125.5 232t-45.5 330z" />
<glyph unicode="D" horiz-adv-x="1466" d="M168 0v1434h489q346 0 525.5 -172t179.5 -545t-179.5 -545t-525.5 -172h-489zM432 223h203q236 0 348.5 114.5t112.5 379.5t-112 378t-349 113h-203v-985z" />
<glyph unicode="E" horiz-adv-x="1251" d="M168 0v1434h975v-226h-713v-381h586v-221h-586v-383h723v-223h-985z" />
<glyph unicode="F" horiz-adv-x="1193" d="M168 0v1434h975v-226h-713v-383h567v-219h-567v-606h-262z" />
<glyph unicode="G" horiz-adv-x="1452" d="M102 715q0 187 45.5 331t127 232.5t186.5 133t231 44.5q160 0 306 -58t309 -159l-127 -192q-69 40 -111.5 62.5t-108 52t-125 43.5t-116.5 14q-159 0 -251.5 -134t-92.5 -368q0 -236 90.5 -375t251.5 -139q158 0 360 176v219h-358v209h608v-807h-250v152 q-202 -175 -411 -175q-91 0 -173.5 27.5t-154 86.5t-124 144.5t-82.5 208.5t-30 271z" />
<glyph unicode="H" horiz-adv-x="1482" d="M168 0v1434h262v-572h621v572h264v-1434h-264v641h-621v-641h-262z" />
<glyph unicode="I" horiz-adv-x="598" d="M168 0v1434h262v-1434h-262z" />
<glyph unicode="J" horiz-adv-x="600" d="M-72 -145q47 16 79.5 27.5t59 25.5t43 23t28.5 25.5t17.5 26.5t8.5 33.5t3.5 38.5t0.5 49v1330h262v-1317q0 -62 -1 -90.5t-5.5 -75t-15 -68t-30.5 -55t-49.5 -51.5t-74 -41.5t-103.5 -41.5t-137 -36z" />
<glyph unicode="K" horiz-adv-x="1394" d="M168 0v1434h262v-729l602 729h311l-579 -684l620 -750h-313l-465 563l-176 -209v-354h-262z" />
<glyph unicode="L" horiz-adv-x="1161" d="M168 0v1434h262v-1211h690v-223h-952z" />
<glyph unicode="M" horiz-adv-x="1746" d="M168 0v1434h270l434 -910l435 910h272v-1434h-264v1008l-367 -768h-149l-369 770v-1010h-262z" />
<glyph unicode="N" horiz-adv-x="1515" d="M168 0v1434h268l647 -1043v1043h265v-1434h-269l-649 1044v-1044h-262z" />
<glyph unicode="O" horiz-adv-x="1542" d="M102 717q0 127 23 235.5t74 202.5t128 160t190 103.5t255 37.5q141 0 254 -37.5t190 -103.5t128.5 -160t74.5 -203t23 -235t-23 -234.5t-74.5 -202.5t-128.5 -160.5t-190 -104.5t-254 -38t-254.5 38t-190.5 104.5t-128 160.5t-74 202.5t-23 234.5zM375 717 q0 -113 21 -203.5t66.5 -162t124 -110t185.5 -38.5t185.5 38.5t124 110t66.5 162t21 203.5t-21 203.5t-66.5 161t-123.5 109t-186 38.5t-186 -38.5t-123.5 -109t-66.5 -161t-21 -203.5z" />
<glyph unicode="P" horiz-adv-x="1351" d="M168 0v1434h565q270 0 414.5 -112.5t144.5 -344.5q0 -453 -559 -453h-303v-524h-262zM430 741h293q303 0 303 236q0 235 -303 235h-293v-471z" />
<glyph unicode="Q" horiz-adv-x="1542" d="M102 717q0 127 23 235.5t74 202.5t128 160t190 103.5t255 37.5q141 0 254 -37.5t190 -103.5t128.5 -160t74.5 -203t23 -235q0 -165 -39 -299t-128.5 -239.5t-223.5 -155.5l229 -181l-174 -180l-334 315q-141 0 -254.5 38t-190.5 104.5t-128 160.5t-74 202.5t-23 234.5z M375 717q0 -113 21 -203.5t66.5 -162t124 -110t185.5 -38.5t185.5 38.5t124 110t66.5 162t21 203.5t-21 203.5t-66.5 161t-123.5 109t-186 38.5t-186 -38.5t-123.5 -109t-66.5 -161t-21 -203.5z" />
<glyph unicode="R" horiz-adv-x="1429" d="M168 0v1434h608q563 0 563 -430q0 -351 -370 -416l372 -588h-286l-350 573h-275v-573h-262zM430 782h332q309 0 309 222q0 221 -303 221h-338v-443z" />
<glyph unicode="S" horiz-adv-x="1288" d="M72 164l118 190q105 -61 249 -109t253 -48q103 0 174.5 45.5t71.5 130.5q0 36 -17.5 65.5t-41.5 49.5t-73.5 42.5t-87 36t-110 38t-116.5 40.5q-62 20 -110 41t-102.5 56t-91 76t-60.5 102t-24 133q0 182 135.5 292.5t360.5 110.5q139 0 292 -41.5t271 -101.5l-119 -193 q-99 46 -221.5 80.5t-210.5 34.5q-99 0 -165 -41.5t-66 -124.5q0 -36 16.5 -64t41 -47t68.5 -38t82.5 -31t101.5 -32.5t108 -37.5q53 -18 94 -35t92.5 -43.5t88.5 -58.5t70 -74t50.5 -97t17.5 -120q0 -189 -143 -301.5t-371 -112.5q-165 0 -335 56t-291 131z" />
<glyph unicode="T" horiz-adv-x="1208" d="M41 1208v226h1128v-226h-430v-1208h-264v1208h-434z" />
<glyph unicode="U" horiz-adv-x="1462" d="M154 559v875h262v-893q0 -60 7.5 -107.5t28.5 -92t55.5 -74t91 -47t132.5 -17.5q93 0 156 25.5t96 74t46 105.5t13 133v893h265v-875q0 -102 -15.5 -185.5t-56 -159t-104 -126.5t-165 -81t-235.5 -30q-135 0 -237 30t-165.5 81t-103.5 127t-55.5 158.5t-15.5 185.5z" />
<glyph unicode="V" horiz-adv-x="1431" d="M27 1434h303l387 -1153l385 1153h303l-545 -1434h-289z" />
<glyph unicode="W" horiz-adv-x="1968" d="M45 1434h299l250 -1092l278 1092h222l278 -1090l254 1090h299l-401 -1434h-264l-277 1057l-274 -1057h-267z" />
<glyph unicode="X" horiz-adv-x="1327" d="M20 0l486 719l-461 715h303l314 -560l313 560h305l-461 -715l486 -719h-314l-329 543l-328 -543h-314z" />
<glyph unicode="Y" horiz-adv-x="1339" d="M18 1434h297l355 -652l354 652h297l-522 -869l2 -565h-264v571z" />
<glyph unicode="Z" horiz-adv-x="1296" d="M72 0v205l788 1003h-741v226h1081v-203l-792 -1008h802v-223h-1138z" />
<glyph unicode="[" horiz-adv-x="727" d="M154 -295v2013h520v-157h-258v-1698h258v-158h-520z" />
<glyph unicode="\" horiz-adv-x="958" d="M43 1618h195l675 -1802h-194z" />
<glyph unicode="]" horiz-adv-x="727" d="M53 -137h258v1698h-258v157h522v-2013h-522v158z" />
<glyph unicode="^" d="M127 682l385 752h258l389 -752h-276l-242 522l-242 -522h-272z" />
<glyph unicode="_" horiz-adv-x="1452" d="M131 -156h1190v-182h-1190v182z" />
<glyph unicode="`" horiz-adv-x="464" d="M-45 1493h301l254 -276h-207z" />
<glyph unicode="a" horiz-adv-x="1208" d="M72 326q0 168 108.5 258t276.5 90q43 0 100.5 -7t98 -14t97 -18.5t70.5 -13.5v96q0 100 -44 143t-158 43q-76 0 -163.5 -20t-232.5 -64l-82 176q304 103 521 103q213 0 313 -90t100 -297v-711h-254v131q-171 -154 -385 -154q-101 0 -182.5 38.5t-132.5 119t-51 191.5z M328 346q0 -86 50 -128t136 -42q162 0 309 131v182q-5 1 -55 10.5t-76.5 14t-70 9.5t-74.5 5q-112 0 -165.5 -49.5t-53.5 -132.5z" />
<glyph unicode="b" horiz-adv-x="1263" d="M139 0v1493h254v-545q174 150 367 150q91 0 166 -34t131 -101.5t87.5 -176t31.5 -249.5q0 -276 -114.5 -418t-301.5 -142q-200 0 -367 148v-125h-254zM393 332q59 -70 137 -110t160 -40q113 0 170.5 92t57.5 263t-57.5 262.5t-170.5 91.5q-81 0 -159 -40.5t-138 -109.5 v-409z" />
<glyph unicode="c" horiz-adv-x="1069" d="M84 539q0 138 39.5 247t107.5 176t153 101.5t181 34.5q185 0 449 -135l-107 -187q-8 4 -44.5 22t-61 29t-62 25.5t-72.5 21.5t-67 7q-115 0 -185.5 -93t-70.5 -249t70.5 -250t185.5 -94q20 0 43 3.5t42.5 8t44.5 13t40.5 14.5t40.5 17.5t35.5 17t33.5 17l27 13.5 l107 -188q-75 -37 -122 -58t-145.5 -48.5t-179.5 -27.5q-97 0 -182.5 34.5t-153.5 102t-107.5 177t-39.5 248.5z" />
<glyph unicode="d" horiz-adv-x="1263" d="M88 537q0 278 113.5 419.5t302.5 141.5q112 0 199.5 -41t166.5 -109v545h254v-1493h-254v125q-171 -148 -366 -148q-188 0 -302 141.5t-114 418.5zM346 537q0 -171 57 -263t170 -92q81 0 158.5 40t138.5 110v409q-62 69 -139.5 109.5t-157.5 40.5q-113 0 -170 -91.5 t-57 -262.5z" />
<glyph unicode="e" horiz-adv-x="1187" d="M84 535q0 267 141.5 415t382.5 148q235 0 361.5 -130.5t126.5 -340.5q0 -37 -4 -74t-8 -55l-3 -19h-737q12 -149 79.5 -230t180.5 -81q143 0 397 137l103 -162q-59 -33 -93 -50t-111 -50t-157 -49.5t-161 -16.5q-105 0 -194 34.5t-157.5 101.5t-107.5 175.5t-39 246.5z M346 623h502v7q0 283 -240 283q-114 0 -181 -76t-81 -214z" />
<glyph unicode="f" horiz-adv-x="763" d="M51 887v188h148v86q0 173 73 252.5t215 79.5q148 0 349 -80l-88 -182q-159 43 -203 43t-69 -21.5t-25 -83.5v-94h274v-188h-274v-887h-252v887h-148z" />
<glyph unicode="g" horiz-adv-x="1263" d="M88 537q0 278 113.5 419.5t302.5 141.5q112 0 199.5 -41t166.5 -109v127h254v-1100q0 -214 -113 -313.5t-333 -99.5q-117 0 -265 22.5t-276 59.5l51 209q116 -35 241 -59.5t204 -24.5q127 0 182 45.5t55 150.5v160q-171 -148 -366 -148q-188 0 -302 141.5t-114 418.5z M346 537q0 -171 57 -263t170 -92q81 0 158.5 40t138.5 110v409q-62 69 -139.5 109.5t-157.5 40.5q-113 0 -170 -91.5t-57 -262.5z" />
<glyph unicode="h" horiz-adv-x="1267" d="M139 0v1493h254v-555q223 160 426 160q316 0 316 -336v-762h-252v707q0 90 -35 140t-121 50q-84 0 -179.5 -47.5t-154.5 -101.5v-748h-254z" />
<glyph unicode="i" horiz-adv-x="532" d="M133 1249v238h270v-238h-270zM141 0v1075h252v-1075h-252z" />
<glyph unicode="j" horiz-adv-x="532" d="M-100 -268q63 21 101 35t67 33t41.5 31t20 40t8.5 48t1 67v2v1087h252v-1071v-2q0 -55 -0.5 -80.5t-4 -68.5t-11 -62.5t-20.5 -51.5t-34 -48t-51 -39.5t-71.5 -39t-95 -32.5t-121.5 -33zM129 1249v238h270v-238h-270z" />
<glyph unicode="k" horiz-adv-x="1136" d="M139 0v1493h254v-901l383 483h289l-363 -430l426 -645h-266l-313 465l-156 -186v-279h-254z" />
<glyph unicode="l" horiz-adv-x="544" d="M145 0v1493h254v-1493h-254z" />
<glyph unicode="m" horiz-adv-x="1902" d="M139 0v1075h254v-145q72 67 172.5 117.5t204.5 50.5q123 0 192.5 -53.5t96.5 -137.5q43 43 96.5 82t139 74t165.5 35q163 0 237.5 -90t74.5 -246v-762h-254v707q0 57 -11 96.5t-44.5 66.5t-90.5 27q-76 0 -157 -49.5t-136 -112.5v-735h-250v707q0 89 -31.5 139.5 t-115.5 50.5q-75 0 -153 -46t-136 -108v-743h-254z" />
<glyph unicode="n" horiz-adv-x="1267" d="M139 0v1075h254v-137q223 160 426 160q316 0 316 -336v-762h-252v707q0 90 -35 140t-121 50q-84 0 -179.5 -47.5t-154.5 -101.5v-748h-254z" />
<glyph unicode="o" horiz-adv-x="1249" d="M84 537q0 266 139.5 413.5t399.5 147.5q259 0 399.5 -148t140.5 -413q0 -266 -139.5 -413t-400.5 -147q-259 0 -399 147.5t-140 412.5zM340 537q0 -173 69.5 -268t213.5 -95q282 0 282 363q0 362 -282 362q-144 0 -213.5 -94.5t-69.5 -267.5z" />
<glyph unicode="p" horiz-adv-x="1263" d="M139 -418v1493h254v-127q170 150 367 150q91 0 166 -34t131 -101.5t87.5 -176t31.5 -249.5q0 -276 -114.5 -418t-301.5 -142q-200 0 -367 148v-543h-254zM393 332q59 -70 137 -110t160 -40q113 0 170.5 92t57.5 263t-57.5 262.5t-170.5 91.5q-81 0 -159 -40.5 t-138 -109.5v-409z" />
<glyph unicode="q" horiz-adv-x="1263" d="M88 537q0 278 113.5 419.5t302.5 141.5q112 0 199.5 -41t166.5 -109v127h254v-1493h-254v543q-171 -148 -366 -148q-188 0 -302 141.5t-114 418.5zM346 537q0 -171 57 -263t170 -92q81 0 158.5 40t138.5 110v409q-62 69 -139.5 109.5t-157.5 40.5q-113 0 -170 -91.5 t-57 -262.5z" />
<glyph unicode="r" horiz-adv-x="837" d="M139 0v1075h254v-227q7 20 21.5 46t48.5 64t76.5 67t110.5 48q54 15 115 15q16 0 32 -1v-239q-74 0 -136 -19t-102.5 -49t-72 -66.5t-48.5 -73t-28 -66.5t-14 -49l-3 -19v-506h-254z" />
<glyph unicode="s" horiz-adv-x="1077" d="M66 113l104 182q90 -47 209 -84t203 -37q76 0 125 30t49 81q0 16 -5 30.5t-17 26.5t-24.5 22t-34 19.5t-37.5 16t-43.5 14.5t-44.5 12.5t-48.5 12.5t-46.5 12q-59 16 -104.5 31.5t-97.5 43.5t-85.5 61.5t-56.5 84.5t-23 112q0 143 108.5 228.5t297.5 85.5q122 0 247 -34 t224 -81l-105 -168q-83 36 -182 62t-172 26q-75 0 -119.5 -28.5t-44.5 -77.5q0 -16 4.5 -30.5t15.5 -26t22.5 -21t31 -18t34.5 -15t41 -13.5t42.5 -11.5t46.5 -11.5t45 -11q68 -18 121.5 -37.5t105 -49.5t85.5 -66t54.5 -85.5t20.5 -109.5q0 -148 -115 -231t-305 -83 q-138 0 -281.5 41t-244.5 95z" />
<glyph unicode="t" horiz-adv-x="835" d="M57 887v188h148v271l252 40v-311h293v-188h-293v-584q0 -61 25 -82.5t69 -21.5q47 0 182 49l90 -189q-185 -82 -329 -82q-141 0 -215 79.5t-74 252.5v578h-148z" />
<glyph unicode="u" horiz-adv-x="1267" d="M131 313v762h252v-706q0 -91 35 -142t121 -51q82 0 176 47.5t157 104.5v747h254v-1075h-254v135q-233 -158 -428 -158q-313 0 -313 336z" />
<glyph unicode="v" horiz-adv-x="1173" d="M33 1075h272l279 -815l280 815h275l-428 -1075h-250z" />
<glyph unicode="w" horiz-adv-x="1699" d="M43 1075h268l201 -813l229 813h215l230 -813l203 813h268l-336 -1075h-240l-231 774l-232 -774h-241z" />
<glyph unicode="x" horiz-adv-x="1214" d="M16 0l437 539l-412 536h291l274 -395l275 395h293l-414 -534l436 -541h-301l-289 403l-287 -403h-303z" />
<glyph unicode="y" horiz-adv-x="1175" d="M35 1075h274l279 -774l278 774h277l-596 -1493h-275l187 422z" />
<glyph unicode="z" horiz-adv-x="1105" d="M74 0v180l612 684h-592v211h928v-182l-614 -684h614v-209h-948z" />
<glyph unicode="{" horiz-adv-x="806" d="M33 627v172q116 0 164.5 57.5t31.5 179.5l-26 191q-32 243 102 367t412 124h37v-153h-37q-67 0 -116.5 -17.5t-76.5 -48t-43 -70.5t-16 -84.5t4 -91.5l23 -170q21 -166 -44 -253.5t-215 -116.5q150 -29 215 -117t44 -254l-23 -170q-4 -47 -4 -92t16 -85t43 -70t76.5 -48 t116.5 -18h37v-152h-37q-278 0 -412.5 124.5t-101.5 367.5l26 190q17 121 -31.5 179.5t-164.5 58.5z" />
<glyph unicode="|" horiz-adv-x="499" d="M154 -252v1927h190v-1927h-190z" />
<glyph unicode="}" horiz-adv-x="806" d="M53 -141h37q67 0 116.5 18t76.5 48t43 70t15.5 85t-5.5 92l-21 170q-21 165 42.5 253t213.5 118q-150 28 -213.5 116t-42.5 254l21 170q5 47 5.5 91.5t-15.5 84.5t-43 70.5t-76.5 48t-116.5 17.5h-37v153h37q278 0 411 -124t101 -367l-27 -191q-15 -122 34 -179.5 t165 -57.5v-172q-116 0 -164.5 -58.5t-31.5 -179.5l26 -190q32 -243 -102 -367.5t-412 -124.5h-37v152z" />
<glyph unicode="~" d="M53 455q62 139 147 211.5t201 72.5q69 0 140 -23.5t121 -52t113.5 -52t119.5 -23.5q53 0 96.5 28t89.5 109l154 -63q-122 -285 -348 -285q-65 0 -136 23.5t-122 52t-116 52t-120 23.5q-52 0 -94.5 -28t-89.5 -109z" />
<glyph unicode="&#xa2;" horiz-adv-x="1148" d="M100 719q0 131 36 236t98.5 172t141.5 105t169 44v158h186v-174q130 -30 324 -130l-109 -186q-7 4 -32 17t-41.5 21t-41.5 20t-50.5 21.5t-49.5 16.5v-647q70 22 215 96l109 -186q-190 -98 -324 -129v-174h-186v158q-91 7 -170 44.5t-141.5 105t-98 173t-35.5 238.5z M360 719q0 -129 49.5 -217.5t135.5 -116.5v664q-86 -27 -135.5 -114t-49.5 -216z" />
<glyph unicode="&#xa3;" horiz-adv-x="1171" d="M109 0v180q9 5 24.5 14t55 41.5t71 68.5t59.5 93.5t33 118.5h-221v160h195q-16 39 -49 95t-58 98t-45 104.5t-20 126.5q0 164 112.5 260t308.5 96q77 0 150.5 -14.5t142 -43.5t110.5 -50.5t101 -55.5l-118 -172q-208 115 -340 115q-97 0 -150 -49t-53 -123 q0 -46 20.5 -96t47 -88.5t57 -95t45.5 -107.5h332v-160h-320q-12 -95 -63 -176t-99 -121h619v-219h-948z" />
<glyph unicode="&#xa5;" horiz-adv-x="1425" d="M61 1434h297l355 -652l354 652h297l-414 -686h273v-156h-365l-16 -29v-96h381v-156h-381l2 -311h-264v311h-379v156h379v104l-13 21h-366v156h272z" />
<glyph unicode="&#xad;" horiz-adv-x="890" d="M131 479v207h627v-207h-627z" />
<glyph unicode="&#x192;" horiz-adv-x="1167" d="M66 -418l309 1305h-150l43 188h152l22 92q41 176 117.5 251t233.5 75q29 0 59.5 -3.5t62.5 -10.5t57 -13t56 -16.5t46 -15.5t41 -15l26 -10l-121 -182q-151 49 -215 43q-42 -3 -70 -28t-41 -81l-20 -86h289l-39 -188h-295l-312 -1305h-251z" />
<glyph unicode="&#x2000;" horiz-adv-x="859" />
<glyph unicode="&#x2001;" horiz-adv-x="1718" />
<glyph unicode="&#x2002;" horiz-adv-x="859" />
<glyph unicode="&#x2003;" horiz-adv-x="1718" />
<glyph unicode="&#x2004;" horiz-adv-x="572" />
<glyph unicode="&#x2005;" horiz-adv-x="429" />
<glyph unicode="&#x2006;" horiz-adv-x="286" />
<glyph unicode="&#x2007;" horiz-adv-x="286" />
<glyph unicode="&#x2008;" horiz-adv-x="214" />
<glyph unicode="&#x2009;" horiz-adv-x="343" />
<glyph unicode="&#x200a;" horiz-adv-x="95" />
<glyph unicode="&#x2010;" horiz-adv-x="890" d="M131 479v207h627v-207h-627z" />
<glyph unicode="&#x2011;" horiz-adv-x="890" d="M131 479v207h627v-207h-627z" />
<glyph unicode="&#x2012;" horiz-adv-x="890" d="M131 479v207h627v-207h-627z" />
<glyph unicode="&#x2013;" horiz-adv-x="1157" d="M133 479v207h893v-207h-893z" />
<glyph unicode="&#x2014;" horiz-adv-x="1376" d="M133 479v207h1110v-207h-1110z" />
<glyph unicode="&#x2018;" horiz-adv-x="518" d="M104 1194l224 281l73 -89l-131 -223h121v-307h-264z" />
<glyph unicode="&#x2019;" horiz-adv-x="495" d="M111 903l129 223h-121v308h266l23 -338l-224 -281z" />
<glyph unicode="&#x201c;" horiz-adv-x="950" d="M104 1194l224 281l73 -89l-131 -223h121v-307h-264zM535 1194l225 281l74 -89l-129 -223h120v-307h-268z" />
<glyph unicode="&#x201d;" horiz-adv-x="927" d="M111 903l129 223h-121v308h266l23 -338l-224 -281zM541 903l131 223h-121v308h266l23 -338l-226 -281z" />
<glyph unicode="&#x2026;" horiz-adv-x="1470" d="M129 0v307h268v-307h-268zM600 0v307h270v-307h-270zM1073 0v307h268v-307h-268z" />
<glyph unicode="&#x202f;" horiz-adv-x="343" />
<glyph unicode="&#x205f;" horiz-adv-x="429" />
<glyph unicode="&#x20ac;" horiz-adv-x="1478" d="M90 483v144h125q-2 29 -2 90q0 51 2 78h-125v143h141q46 256 198.5 387t367.5 131q79 0 158 -17t157 -50t137 -64t137 -78l-126 -192q-129 76 -233.5 120t-203.5 44q-115 0 -195.5 -73.5t-115.5 -207.5h508v-143h-533q-2 -25 -2 -78q0 -61 4 -90h531v-144h-506 q39 -130 118 -200t191 -70q99 0 203.5 44t233.5 120l126 -193q-163 -97 -301.5 -152t-287.5 -55q-139 0 -252 53t-196 168.5t-116 284.5h-143z" />
<glyph unicode="&#xe000;" horiz-adv-x="1075" d="M0 0v1075h1075v-1075h-1075z" />
</font>
</defs>
</svg>
